My Descarga - Descargas Directas

Registrarse

Origen [HD]

Categoria: Películas  »  HD
Genero: Thriller

Idioma: 

Título: Origen
Título original: Inception
País: USA
Estreno en USA: 16/07/2010
Estreno en España: 06/08/2010
Estreno en DVD (venta): 09/12/2010
Blu-Ray (Edición Limitada. Maletín): 09/12/2010
Estreno en Blu-ray: 09/12/2010
Productora: Warner Bros. Pictures
Director: Christopher Nolan
Guión: Christopher Nolan
Reparto: Leonardo DiCaprio, Marion Cotillard, Cillian Murphy, Ellen Page, Joseph Gordon-Levitt, Ken Watanabe, Tom Hardy, Michael Caine, Dileep Rao
Calificación: No recomendada para menores de 12 años




SINOPSIS:



Dom Cobb (Leonardo DiCaprio) es un hábil ladrón, absolutamente el mejor en el peligroso arte de la extración, robando invaluables secretos del fondo del subconsciente durante el estado de sueño, cuando la mente se encuentra más vulnerable. La extraña habilidad de Cobb lo hace un codiciado jugador en este nuevo mundo de espionaje corportativo, pero a la vez también esto lo hace un fugitivo internacional lo cual le costará todo lo que ama. Ahora se le ofrece a Cobb un oportunidad de redimirse. Un último trabajo que podría devolverle su vida solo si es que puede conseguir lo imposible - la creación. En lugar del robo perfecto, Cobb y su equipo de especialistas deberán lograr hacer todo a la inversa: su tarea no será robar una idea sino implantar una. Si lo logran, este podría ser el crimen perfecto. Pero ningún cuidadoso planeamiento o experiencia podrán preparar a este equipo para enfrentarse al más peligroso enemigo que parece predecir cada uno de sus movimientos. Un enemigo que solo Cobb podría verlo venir. Este verano tu mente es la escena del crimen.


Complete name :Origen.1080p By Charly.mkv
Format : Matroska
File size : 12,99 GB
Duration : 2h 22mn
Overall bit rate : 937 Kbps
Encoded date : UTC 2010-11-27 20:37:49
Writing application : mkvmerge v2.9.8 ( C est le bon ) built on Aug 19 2009 16:59:50
Writing library : libebml v0.7.7 + libmatroska v0.8.1
Video #1
ID : 1
Format : AVC
Format/Info : Advanced Video Codec
Format profile : High@L4.0
Format settings, CABAC : Yes
Format settings, ReFrames : 5 frames
Muxing mode : Container profile=Unknown@4.0
Codec ID : V_MPEG4/ISO/AVC
Duration : 2h 22mn
Bit rate : 535 Kbps
Width : 1 920 pixels
Height : 800 pixels
Display aspect ratio : 2.40:1
Frame rate : 25.000 fps
Original frame rate : 23.976 fps
Resolution : 24 bits
Colorimetry : 4:2:0
Scan type : Progressive
Bits/(Pixel*Frame) : 0.014
Stream size : 543 MiB (57%)
Writing library : x264 core 107 r1745 4785e8e
Encoding settings : cabac=1 / ref=5 / deblock=1:-2:-2 / analyse=0x3:0x133 / me=umh / subme=9 / psy=1 / psy_rd=1.00:0.00 / mixed_ref=1 / me_range=16 / chroma_me=1 / trellis=0 / 8x8dct=1 / cqm=0 / deadzone=3,3 / fast_pskip=1 / chroma_qp_offset=-2 / threads=6 / sliced_threads=0 / nr=0 / decimate=0 / interlaced=0 / constrained_intra=0 / bframes=7 / b_pyramid=2 / b_adapt=2 / b_bias=0 / direct=3 / weightb=1 / open_gop=0 / weightp=2 / keyint=250 / keyint_min=23 / scenecut=40 / intra_refresh=0 / rc_lookahead=60 / rc=crf / mbtree=1 / crf=17.0 / qcomp=0.80 / qpmin=10 / qpmax=51 / qpstep=4 / ip_ratio=1.10 / aq=1:0.50
Language : English
Audio #2
ID : 2
Format : AC-3
Format/Info : Audio Coding 3
Codec ID : A_AC3
Duration : 2h 22mn
Bit rate mode : Constant
Bit rate : 384 Kbps
Channel(s) : 6 channels
Channel positions : Front: L C R, Surround: L R, LFE
Sampling rate : 48.0 KHz
Stream size : 390 MiB (41%)
Title : audio dvd ac3 384
Language : Spanish
Text #3
ID : 3
Format : UTF-8
Codec ID : S_TEXT/UTF8
Codec ID/Info : UTF-8 Plain Text

¿No sabes como descargar? - Guia Rapida para Principiantes
Manual Basico Jdownloader
Publicidad
Enlaces enviados por fileservemen el 08-12-2010
 
Rango:Banneado
Archivos en la web:6

Enlaces de Origen [HD]


30 Comentarios
Muchas gracias, para ver 2 veces
Gracias charlyjerico
muchas gracias ever si esta se ve bien que ya m la he bajado 4 veces y todas se ven d pena
muchas gracias
muchísimas gracias por tu aportación. Esta es la primera vez que voy ha bajar una peli en hd y estoy deseando verla.
Gracias
grcias buena peli
Gracias charlyjerico estoy deseando ver esta peli,
Como le hago para poder ver esta pelicula en la compu???
Gracias por el aporte
Deja un comentario
Para poner un comentario necesitar ser un usuario registrado:

Si todavia no tienes una cuenta, Registrate.