MyDescarga

Retroceder   MyDescarga > Zona de Archivos > Otros

Respuesta
 
Herramientas Desplegado
Antiguo 09-06-2010, 23:56   #1
Lehia
Banneado
 
Fecha de Ingreso: Dec 2009
Mensajes: 76
Gracias: 4
Agradecido 84 Veces en 39 Posts
Predeterminado Patton 360º [Castellano][DvbRip][2009][MU][Capitulos 1,2,3,4]

Argumento Global:
El general George S. Patton creó polémica durante la II Guerra Mundial por su carácter extravagante, su franqueza, su intransigencia, y su agresiva estrategia de combate.
El general jugó un papel clave en la decisiva incursión de los aliados en Alemania tras el Día D. Ahora, tras el éxito de Batalla 360, Canal de Historia ofrece a sus espectadores una nueva serie épica sobre Patton, uno de los más célebres generales americanos.
Utilizamos imágenes creadas por ordenador para recrear escenas de batalla y las combinamos con entrevistas a historiadores y a algunos hombres que lucharon bajo las órdenes de Patton, y con comentarios de expertos militares. Rememoramos la brillante estrategia y el liderazgo del general Patton así como la destreza con la que hizo retroceder a los nazis durante la II Guerra Mundial.
Esta serie nos colocará en la primera línea de acción de las principales batallas que emprendió Patton en el norte de África, en Sicilia y en Europa. Y nos ofrece además una oportunidad única de comprender a este hombre al que las tropas estadounidenses se referían como El Viejo Sangre y Agallas.






Ficha:
Productora: Flight 33 Productions
Director: Tony Long
Duración: 42 min
Peso: 550 mb
Dividido con Winrar sin Pass. Enlaces intercambiables.
Calidad: SatRip. 640x400 XVid-mp3
Idioma: castellano
Año: 2009
Pais: EEUU

Capitulo 1: Sangre y agallas


Argumento:
El 8 de noviembre de 1942, el general George S. Patton y el ejército norteamericano emprendieron el camino que les llevaría a Alemania al invadir el norte de África. El programa empieza con un avance del primer enfrentamiento entre EEUU y las fuerzas alemanas en la batalla del paso de Kasserine (Túnez) en febrero de 1943. Luego volvemos a los primeros desembarques en noviembre de 1942. Las fuerzas francesas pro-nazi resistieron la invasión del ejército de Patton con una fuerza inesperada tanto por tierra como por mar y por aire. Tras tres días de intensa lucha, se declaró un alto el fuego y Patton entró triunfante en la ciudad portuaria de Casablanca. Pero aún estaban por llegar las batallas más importantes contra el ejército alemán.


MediaInfo :


Format : AVI
Format/Info : Audio Video Interleave
File size : 499 MiB
Duration : 42mn 41s
Overall bit rate : 1 635 Kbps
Writing application : VirtualDubMod 1.5.4.1 (build 2178/release)
Writing library : VirtualDubMod build 2178/release

Video
ID : 0
Format : MPEG-4 Visual
Format profile : Advanced Simple@L5
Format settings, BVOP : Yes
Format settings, QPel : No
Format settings, GMC : No warppoints
Format settings, Matrix : Custom
Codec ID : XVID
Codec ID/Hint : XviD
Duration : 42mn 41s
Bit rate : 1 516 Kbps
Width : 672 pixels
Height : 400 pixels
Display aspect ratio : 1.680
Frame rate : 25.000 fps
Resolution : 8 bits
Colorimetry : 4:2:0
Scan type : Progressive
Bits/(Pixel*Frame) : 0.226
Stream size : 463 MiB (93%)
Writing library : XviD 1.2.1 (UTC 2008-12-04)

Audio
ID : 1
Format : MPEG Audio
Format version : Version 1
Format profile : Layer 3
Mode : Joint stereo
Format_Settings_ModeExtension : MS Stereo
Codec ID : 55
Codec ID/Hint : MP3
Duration : 42mn 41s
Bit rate mode : Variable
Bit rate : 106 Kbps
Channel(s) : 2 channels
Sampling rate : 48.0 KHz
Stream size : 32.3 MiB (6%)
Alignment : Aligned on interleaves
Interleave, duration : 24 ms (0.60 video frame)
Interleave, preload duration : 566 ms

Capturas:




Capitulo 2: La ultima batalla de Rommel
Argumento:
En la batalla del paso de Kasserine (Túnez), los alemanes asestaron un duro golpe a las fuerzas americanas comandadas por el general Lloyd Fredentall. Tras esta humillación, Eisenhower decidió dejar a Patton a cargo de las tropas americanas. El Viejo Sangre y Agallas se apresuró a poner las tropas mal instruidas en forma, llevándoles a la victoria en la batalla de El Guettar (Túnez). Tras la retirada de las fuerzas del Eje, Patton y los aliados empujaron al enemigo fuera del continente y, en mayo de 1943, declararon la victoria en el norte de África.


Mediainfo:

Format : AVI
Format/Info : Audio Video Interleave
File size : 550 MiB
Duration : 44mn 29s
Overall bit rate : 1 728 Kbps
Writing application : VirtualDubMod 1.5.4.1 (build 2178/release)
Writing library : VirtualDubMod build 2178/release

Video
ID : 0
Format : MPEG-4 Visual
Format profile : Advanced Simple@L5
Format settings, BVOP : Yes
Format settings, QPel : No
Format settings, GMC : No warppoints
Format settings, Matrix : Custom
Codec ID : XVID
Codec ID/Hint : XviD
Duration : 44mn 29s
Bit rate : 1 610 Kbps
Width : 656 pixels
Height : 384 pixels
Display aspect ratio : 16:9
Frame rate : 25.000 fps
Resolution : 8 bits
Colorimetry : 4:2:0
Scan type : Progressive
Bits/(Pixel*Frame) : 0.256
Stream size : 512 MiB (93%)
Writing library : XviD 1.2.1 (UTC 2008-12-04)

Audio
ID : 1
Format : MPEG Audio
Format version : Version 1
Format profile : Layer 3
Mode : Joint stereo
Format_Settings_ModeExtension : MS Stereo
Codec ID : 55
Codec ID/Hint : MP3
Duration : 44mn 29s
Bit rate mode : Variable
Bit rate : 105 Kbps
Channel(s) : 2 channels
Sampling rate : 48.0 KHz
Stream size : 33.6 MiB (6%)
Alignment : Aligned on interleaves
Interleave, duration : 24 ms (0.60 video frame)
Interleave, preload duration : 516 ms


Capturas :







Capitulo 3: Bautismo de sangre


Mientras las fuerzas aliadas se preparaban para invadir Sicilia, al general Patton quedó al mando del 7º Ejército norteamericano en reconocimiento a sus victorias en el norte de África. La llamada Operación Husky combinó el desembarque con los ataques aéreos y es la mayor invasión en la historia de la guerra hasta la fecha. A pesar del contraataque inesperado de los tanques italianos, Patton y sus aliados lograron mantener el control de las playas y prepararse para empujar hacia el interior.



Mediainfo :


Format : AVI
Format/Info : Audio Video Interleave
File size : 550 MiB
Duration : 44mn 28s
Overall bit rate : 1 729 Kbps
Writing application : VirtualDubMod 1.5.4.1 (build 2178/release)
Writing library : VirtualDubMod build 2178/release

Video
ID : 0
Format : MPEG-4 Visual
Format profile : Advanced Simple@L5
Format settings, BVOP : Yes
Format settings, QPel : No
Format settings, GMC : No warppoints
Format settings, Matrix : Custom
Codec ID : XVID
Codec ID/Hint : XviD
Duration : 44mn 28s
Bit rate : 1 610 Kbps
Width : 624 pixels
Height : 368 pixels
Display aspect ratio : 1.696
Frame rate : 25.000 fps
Resolution : 8 bits
Colorimetry : 4:2:0
Scan type : Progressive
Bits/(Pixel*Frame) : 0.280
Stream size : 512 MiB (93%)
Writing library : XviD 1.2.1 (UTC 2008-12-04)

Audio
ID : 1
Format : MPEG Audio
Format version : Version 1
Format profile : Layer 3
Mode : Joint stereo
Format_Settings_ModeExtension : MS Stereo
Codec ID : 55
Codec ID/Hint : MP3
Duration : 44mn 28s
Bit rate mode : Variable
Bit rate : 106 Kbps
Channel(s) : 2 channels
Sampling rate : 48.0 KHz
Stream size : 33.6 MiB (6%)
Alignment : Aligned on interleaves
Interleave, duration : 24 ms (0.60 video frame)
Interleave, preload duration : 504 ms


Capturas :





Archivos :

Para cargar los contenedores del aporte se necesita uno de estos 3 programas :





Download Megaupload 360º General Patton Capitulos 1,2.3


Capítulo 4º Un general de cuidado


Mediainfo:


Format : AVI
Format/Info : Audio Video Interleave
File size : 550 MiB
Duration : 42mn 30s
Overall bit rate : 1 809 Kbps
Writing application : VirtualDubMod 1.5.4.1 (build 2178/release)
Writing library : VirtualDubMod build 2178/release

Video
ID : 0
Format : MPEG-4 Visual
Format profile : Advanced Simple@L5
Format settings, BVOP : Yes
Format settings, QPel : No
Format settings, GMC : No warppoints
Format settings, Matrix : Custom
Codec ID : XVID
Codec ID/Hint : XviD
Duration : 42mn 30s
Bit rate : 1 674 Kbps
Width : 640 pixels
Height : 400 pixels
Display aspect ratio : 1.600
Frame rate : 25.000 fps
Resolution : 8 bits
Colorimetry : 4:2:0
Scan type : Progressive
Bits/(Pixel*Frame) : 0.262
Stream size : 509 MiB (93%)
Writing library : XviD 1.2.1 (UTC 2008-12-04)

Audio
ID : 1
Format : MPEG Audio
Format version : Version 1
Format profile : Layer 3
Mode : Joint stereo
Format_Settings_ModeExtension : MS Stereo
Codec ID : 55
Codec ID/Hint : MP3
Duration : 42mn 30s
Bit rate mode : Constant
Bit rate : 128 Kbps
Channel(s) : 2 channels
Sampling rate : 48.0 KHz
Stream size : 38.9 MiB (7%)
Alignment : Aligned on interleaves
Interleave, duration : 80 ms (2.00 video frames)
Interleave, preload duration : 504 ms
Writing library : LAME3.98.2


Capturas :





http://i587.photobucket.com/albums/ss319/eskuak/ccf_hover.jpg

Download Rapidshare 360º General Patton Capitulos 4

Última edición por Lehia; 10-06-2010 a las 00:07
Lehia está desconectado   Responder Citando
Los siguientes 2 Usuarios dan las gracias a Lehia por este Post:
funkillo55 (18-06-2010), yepa007 (22-02-2012)
Antiguo 18-06-2010, 21:39   #2
funkillo55
Nuevo Miembro
 
Fecha de Ingreso: Mar 2010
Mensajes: 4
Gracias: 34
Agradecido 0 Veces en 0 Posts
Smile

Buenas Compi, en primer lugar Gracias por el aporte.
Lo he descargado y todo bien pero al descomprimir los capitulos 1,2,3 me pide
el archivo:
\eskbs0o_SeriecompletaElgeneralPattonSegundaGuerra Mundial1234uak.part17.rar
que no se encuntra en el contenedor.
por lo tanto el capitulo 03. Bautismo de sangre, no se llega a descomprimir.

Gracias Compi
funkillo55 está desconectado   Responder Citando
Respuesta

Herramientas
Desplegado

Normas de Publicación
No puedes crear nuevos temas
No puedes responder mensajes
No puedes subir archivos adjuntos
No puedes editar tus mensajes

Los Códigos BB están Activado
Las Caritas están Activado
[IMG] está Activado
El Código HTML está Desactivado

Ir al Foro


La franja horaria es GMT +2. Ahora son las 06:47.


Powered by : vBulletin® Versión 3.8.4
Copyright ©2000 - 2014, Jelsoft Enterprises Ltd.
vBulletin - vBulletin en español
MyDescarga © 2009